5ちゃんねる ★スマホ版★ ■掲示板に戻る■ 全部 1- 最新50  

■ このスレッドは過去ログ倉庫に格納されています

【MFO】誕生報告/検証スレ 2

1 :ネトゲ廃人@名無し:2008/03/09(日) 21:58:54 ID:???
「モンスターファームオンライン」で
どんなCD/DVDからどんなモンスターが誕生したかを報告検証するスレです

【公式サイト】
ttp://www.mf-online.jp/
【MFOwiki】
ttp://wikiwiki.jp/mfo/
【外部掲示板】
ttp://jbbs.livedoor.jp/game/37629/

【前スレ】
【MFO】誕生報告/検証スレ【CD/DVD】
http://game13.2ch.net/test/read.cgi/mmosaloon/1200443651/

報告テンプレ(上の3つは必須)
【再生したCD/DVD】
【再生したモンスター】
【特徴】 ※身体特徴と、ただの特徴も詳しく
【バイト数】 ※わかる範囲で。書きたくない場合は書かなくてもOK

※バイト数を晒されたCD/DVDから再生されるモンスターはiso等の外部ツールをにより
大多数のプレイヤーが所有する事になる可能性が高い事を了承した上で書き込む事

次スレは>>950

952 :950:2008/03/13(木) 10:53:54 ID:???
ERROR:新このホストでは、しばらくスレッドが立てられません。
またの機会にどうぞ。。。
ネトゲ廃人@名無し (1)


>>960後は頼んだ

953 :ネトゲ廃人@名無し:2008/03/13(木) 10:54:17 ID:???
次スレからはバイト数必須。書かないやつは荒らしと同類とみなして報告するからな。
ゴミクズどもはさっさと調べてバイト数書いて報告しろよ?わかったか?

954 :950:2008/03/13(木) 10:57:23 ID:???
次スレです

http://game13.2ch.net/test/read.cgi/mmosaloon/1179658193/

955 :ネトゲ廃人@名無し:2008/03/13(木) 10:58:57 ID:???
なんか沸いてるな
ま、バイト数無し報告なんてどうせ全部釣りだからスルーでいいな

956 :ネトゲ廃人@名無し:2008/03/13(木) 11:01:07 ID:???
・・・報告?

957 :ネトゲ廃人@名無し:2008/03/13(木) 11:03:02 ID:???
このスレ終わってんな
避難所行くか

958 :ネトゲ廃人@名無し:2008/03/13(木) 11:03:58 ID:???
バイトなし報告がイランというのは、個人的意見では同意

でも、必須にするかといえば、しないほうがいいと思う
つーか別に誕生報告だけが目的なわけじゃないし

959 :ネトゲ廃人@名無し:2008/03/13(木) 11:07:04 ID:???
レンタル出来るものとかならイランとは思うが
手に入りにくいものやなんかは
タイトルだけ報告されてもなぁ

960 :ネトゲ廃人@名無し:2008/03/13(木) 11:08:54 ID:???
スレタイが良くないんじゃない?
報告するだけだと思って、バイト数入れなかったら
屑扱いされました。
そのあと報告したら、手のひら返されたがw

961 :ネトゲ廃人@名無し:2008/03/13(木) 11:11:32 ID:???
ま、そんなもんだろ世の中

962 :ネトゲ廃人@名無し:2008/03/13(木) 11:14:22 ID:???
どうでもいい雑談すんなよ。バイト数なしの報告もいらねーけど雑談もいらねーよ。

963 :ネトゲ廃人@名無し:2008/03/13(木) 11:15:10 ID:???
まぁ、必須ではないとしても
書かなきゃとりあえず書いてくれとはいうよw

最初に書く時点では自由だ、というよりそこでハードルを上げる意味がない
でも、情報として役に立つものに仕上げるには、バイト数がなければ意味がない

よって、必須である必要はないが、書いてなければ聞かせてもらう

964 :ネトゲ廃人@名無し:2008/03/13(木) 11:15:30 ID:???
バイト数必須にするならスレタイ及び>>1
「バイト数必須バイト数必須バイト数必須」くらい書いとけ
そうすりゃ何の面倒も無い。報告は減るだろうが知るか

965 :ネトゲ廃人@名無し:2008/03/13(木) 11:18:02 ID:???
バイト数書くかは自由
聞かれて教えるかも自由
報告したいやつはしてくれ、マイナスな情報はない
検証したいやつもどうぞ

966 :ネトゲ廃人@名無し:2008/03/13(木) 11:21:50 ID:???
iso専用スレじゃないでしょ

967 :ネトゲ廃人@名無し:2008/03/13(木) 11:23:21 ID:???
imgでもwavでもいいよ

968 :ネトゲ廃人@名無し:2008/03/13(木) 11:23:56 ID:???
最初はCD/DVDからだすんだけどな。レアは。

969 :ネトゲ廃人@名無し:2008/03/13(木) 11:24:11 ID:???
ところで>>960は立てにいってくれているんだろうか?

970 :ネトゲ廃人@名無し:2008/03/13(木) 11:25:05 ID:???
>>964
なんでそんなに顔真っ赤なの?

971 :ネトゲ廃人@名無し:2008/03/13(木) 11:26:27 ID:???
>>960が無理だったら>>970だな

972 :970:2008/03/13(木) 11:28:45 ID:???
俺無理だから>>980

973 :ネトゲ廃人@名無し:2008/03/13(木) 11:33:20 ID:???
>>972
試してもいないのに嘘つくな

974 :970:2008/03/13(木) 11:33:34 ID:???
騙るなよ
960逃げたっぽいし立ててくる

975 :ネトゲ廃人@名無し:2008/03/13(木) 11:35:17 ID:???
【再生したCD/DVD】TGS特典ディスク
【再生したモンスター】天真爛漫娘
【見た目】蝶々羽
【特徴】天真爛漫
【バイト数】384184320〜384186368

【再生したCD/DVD】 零〜紅い蝶〜/PS2
【再生したモンスター】 ? ピクシー
【見た目】 赤肌 蝶A
【特徴】 赤肌
【バイト数】 3269623808
【初期スキル】 ファイアバレット、アタックブースター、トルネード

【再生したCD/DVD】 零〜刺青の聲〜/PS2
【再生したモンスター】 ? クエルノ
【見た目】 青肌
【特徴】 青肌
【バイト数】 3329359872
【初期スキル】 パラライズブロウ
精神力125 他20

976 :ネトゲ廃人@名無し:2008/03/13(木) 11:35:48 ID:???
>>973
名前に970って書いてるのはID出ないから調子乗ってる偽者だ

と言ってもエラーで立てれなかったから任せた

977 :ネトゲ廃人@名無し:2008/03/13(木) 11:44:38 ID:???
【再生したCD/DVD】風の谷のナウシカ(2枚組みのどっちか)
【再生したモンスター】 ? キキモ
【見た目】 黄色
【特徴】 初期:軽業師 果物好き
【バイト数】 7362945024
【初期スキル】 尻尾、ウィンドカッター、ウィンドバレット

【再生したCD/DVD】 モンスターファーム1/2 PS2
【再生したモンスター】 ? ライガー
【見た目】 青
【特徴】  戦士 インテリ 肉好き カメレオン
【バイト数】 MF 376010352   MF2 451863888
【初期スキル】 冷気弾2

【再生したCD/DVD】 パンヤよくばりキット
【再生したモンスター】 パンチョ
【見た目】 ドルフ似 青かぼちゃ
【特徴】   ※特徴欄に出るもの 育てた場合は発現した特長も書く
【バイト数】 497099904
【初期スキル】 ブラストストーンLV3、ウォーターガンLV2、ウォーターバレットLV2
【cueシート】 
FILE "pang.iso" BINARY
TRACK 01 MODE1/2352
INDEX 01 00:00:00

978 :ネトゲ廃人@名無し:2008/03/13(木) 11:48:29 ID:???
今後のタイアップCD、攻略本などのバイト数もよろしくお願いしますね
タダでレアモンおいしいです

979 :ネトゲ廃人@名無し:2008/03/13(木) 11:50:01 ID:???
【再生したCD/DVD】 ファンタジーアース ゼロ アームドエディション
【再生したモンスター】 ? コルヌー
【見た目】 黒、長角C
【特徴】   ボディー自慢、戦士、地黒
【バイト数】 560425152
【初期スキル】 
【cueシート】  必須
FILE "ファイル名.拡張子" BINARY
TRACK 01 MODE2/2352
INDEX 01 00:00:00

980 :ネトゲ廃人@名無し:2008/03/13(木) 11:50:10 ID:???
【再生したCD/DVD】 Gateway to Tomorrow
【再生したモンスター】 ミュー ディナシー
【見た目】 音符羽
【特徴】   ボディー自慢、戦士、地黒
【バイト数】 503864256
【初期スキル】 
【cueシート】  必須
FILE "○○.bin" BINARY
TRACK 01 AUDIO
INDEX 01 00:00:00
TRACK 02 AUDIO
INDEX 01 04:37:00
TRACK 03 AUDIO
INDEX 01 08:13:00
TRACK 04 AUDIO
INDEX 01 11:51:00
TRACK 05 AUDIO
INDEX 01 16:23:00
TRACK 06 AUDIO
INDEX 01 21:35:00
TRACK 07 AUDIO
INDEX 01 25:43:00
TRACK 08 AUDIO
INDEX 01 29:58:00
TRACK 09 AUDIO
INDEX 01 34:51:00
TRACK 10 AUDIO
INDEX 01 39:15:00
TRACK 11 AUDIO
INDEX 01 43:10:00


981 :ネトゲ廃人@名無し:2008/03/13(木) 11:50:19 ID:???
うめ

982 :ネトゲ廃人@名無し:2008/03/13(木) 11:52:37 ID:???
テンプレ改変案  
【再生したCD/DVD】
【再生したモンスター】
【見た目】  ※外見特徴
【特徴】   ※特徴欄に出るもの 育てた場合は発現した特長も書く
【バイト数】 ※わかる範囲で。書きたくない場合は書かなくてもOK
【初期スキル】 ※3種類ある *?レア限定
【cueシート】 ※うpする場合はURLを、そうでない場合は時間構成を書く *自作ISOやデータディスクは不要

983 :ネトゲ廃人@名無し:2008/03/13(木) 11:53:20 ID:???


984 :ネトゲ廃人@名無し:2008/03/13(木) 11:53:57 ID:???
テンプレ改変案  
【再生したCD/DVD】
【再生したモンスター】
【見た目】  ※外見特徴
【特徴】   ※特徴欄に出るもの 育てた場合は発現した特長も書く
【バイト数】 ※必須ではない。自作など、入手が難しい物は書いてください。
【初期スキル】 ※3種類ある *?レア限定
【cueシート】 ※うpする場合はURLを、そうでない場合は時間構成を書く *自作ISOやデータディスクは不要


985 :ネトゲ廃人@名無し:2008/03/13(木) 12:08:01 ID:???
梅林三代目

986 :ネトゲ廃人@名無し:2008/03/13(木) 12:12:09 ID:???
お前らのおかげでタダでレアおいしいです。
ゴミクズなりの働きに期待してるぜ。

987 :ネトゲ廃人@名無し:2008/03/13(木) 12:15:08 ID:???
埋めちゃうよ☆ズキューン!!

988 :ネトゲ廃人@名無し:2008/03/13(木) 12:17:10 ID:???
梅酢

989 :ネトゲ廃人@名無し:2008/03/13(木) 12:20:20 ID:???
バッキューン☆

990 :ネトゲ廃人@名無し:2008/03/13(木) 12:24:35 ID:???
【MFO】誕生報告/検証スレ 3
http://game13.2ch.net/test/read.cgi/mmosaloon/1205378592/


991 :ネトゲ廃人@名無し:2008/03/13(木) 12:25:51 ID:???
ttp://mfoc.web.fc2.com/

992 :ネトゲ廃人@名無し:2008/03/13(木) 12:25:55 ID:???
おつ

993 :ネトゲ廃人@名無し:2008/03/13(木) 12:28:31 ID:???
ステータスは2048Bずつずらして53ループ
身長・体重にも何らかの相関あり


994 :ネトゲ廃人@名無し:2008/03/13(木) 12:28:34 ID:???
うめる

995 :ネトゲ廃人@名無し:2008/03/13(木) 12:29:09 ID:???
うめる

996 :ネトゲ廃人@名無し:2008/03/13(木) 12:41:39 ID:???
生める

997 :ネトゲ廃人@名無し:2008/03/13(木) 12:42:00 ID:???
産める

998 :ネトゲ廃人@名無し:2008/03/13(木) 12:42:20 ID:???
埋める

999 :ネトゲ廃人@名無し:2008/03/13(木) 12:43:34 ID:???
ねこのしっぽ

1000 :ネトゲ廃人@名無し:2008/03/13(木) 12:43:55 ID:???
きもい

1001 :1001:Over 1000 Thread
このスレッドは1000を超えました。
もう書けないので、新しいスレッドを立ててくださいです。。。

176 KB
★スマホ版★ 掲示板に戻る 全部 前100 次100 最新50

read.cgi ver 05.04.00 2017/10/04 Walang Kapalit ★
FOX ★ DSO(Dynamic Shared Object)